Najpopularniejszy w Polsce portal o finansach i biznesie

minuta zapisu filmu HD - ile mega?

minuta zapisu filmu HD - ile mega?

"Bartek" <N...@poczta.fm> / 2012-05-15 10:08:43
cześć,

takie lamerskie pytanie...;)
ile zajmuje powiedzmy minuta zapisufilmu HD [w najlepszej jakości itp] z
aparatu kompaktowego?

pytam,
bo chcę kupić kartę pamięci - o ile JPG ma około 5 MB więc karta 16 gb
wystarczy, o tyle nie wiem jakie [może ogromne?] objętości ma zapis video z
nowoczesnego kompaktu;)


--
Pozdrawiam, Bartek

 
Czytaj także na forum

Re: minuta zapisu filmu HD - ile mega?

Dominik <d...@gmail.com> / 2012-05-15 11:21:10
> takie lamerskie pytanie...;)
> ile zajmuje powiedzmy minuta zapisufilmu HD [w najlepszej jakości itp] z
> aparatu kompaktowego?

Wszystko zależy od technologii zapisu (stosowanego kodeka i kompresji).
W mojej kamerze (zapis AVCHD (H.264) 1080p) karta 8 GB wystarcza na 55 minut filmu.

pozdrawiam

Dominik i jego fotogalerie
http://www.dominik.4me.pl
 

Re: minuta zapisu filmu HD - ile mega?

Cezar <c...@BEZtlen.pl> / 2012-05-15 11:27:46


On 15/05/2012 09:08, Bartek wrote:
> cześć,
>
> takie lamerskie pytanie...;)
> ile zajmuje powiedzmy minuta zapisufilmu HD [w najlepszej jakości itp] z
> aparatu kompaktowego?
>
> pytam,
> bo chcę kupić kartę pamięci - o ile JPG ma około 5 MB więc karta 16 gb
> wystarczy, o tyle nie wiem jakie [może ogromne?] objętości ma zapis video z
> nowoczesnego kompaktu;)
>
>

Canon PowerShot SX230 HS na domyslnych ustawieniach i oryginalnym
firmware (CHDK podobno pozwala na ustawienia stopnia kompresji)

Meta info z jednego z filmikow:

General
Complete name : F:\DCIM\111___05\MVI_0703.MOV
Format : MPEG-4
Format profile : QuickTime
Codec ID : qt
File size : 313 MiB
Duration : 1mn 15s
Overall bit rate : 34.8 Mbps
Encoded date : UTC 2012-05-12 15:23:34
Tagged date : UTC 2012-05-12 15:23:34
com.apple.quicktime.make : Canon
com.apple.quicktime.model : Canon PowerShot SX230 HS

Video
ID : 1
Format : AVC
Format/Info : Advanced Video Codec
Format profile : Baseline@L5.0
Format settings, CABAC : No
Format settings, ReFrames : 1 frame
Codec ID : avc1
Codec ID/Info : Advanced Video Coding
Duration : 1mn 15s
Bit rate mode : Variable
Bit rate : 33.3 Mbps
Width : 1 920 pixels
Height : 1 080 pixels
Display aspect ratio : 16:9
Frame rate mode : Constant
Frame rate : 23.976 fps
Color space : YUV
Chroma subsampling : 4:2:0
Bit depth : 8 bits
Scan type : Progressive
Bits/(Pixel*Frame) : 0.669
Stream size : 299 MiB (96%)
Language : English
Encoded date : UTC 2012-05-12 15:23:34
Tagged date : UTC 2012-05-12 15:23:34
Color primaries : BT.709-5, BT.1361, IEC 61966-2-4,
SMPTE RP177
Transfer characteristics : BT.709-5, BT.1361
Matrix coefficients : BT.601-6 525, BT.1358 525, BT.1700
NTSC, SMPTE 170M

Audio
ID : 2
Format : PCM
Format settings, Endianness : Little
Format settings, Sign : Signed
Codec ID : sowt
Duration : 1mn 15s
Bit rate mode : Constant
Bit rate : 1 536 Kbps
Channel(s) : 2 channels
Sampling rate : 48.0 KHz
Bit depth : 16 bits
Stream size : 13.8 MiB (4%)
Language : English
Encoded date : UTC 2012-05-12 15:23:34
Tagged date : UTC 2012-05-12 15:23:34
 

Re: minuta zapisu filmu HD - ile mega?

Pan Peresada <p...@peresada.pl> / 2012-05-19 12:58:11
"Bartek" napisał(a):

>cześć,
>
>takie lamerskie pytanie...;)
>ile zajmuje powiedzmy minuta zapisufilmu HD [w najlepszej jakości itp] z
>aparatu kompaktowego?
>
>pytam,
>bo chcę kupić kartę pamięci - o ile JPG ma około 5 MB więc karta 16 gb
>wystarczy, o tyle nie wiem jakie [może ogromne?] objętości ma zapis video z
>nowoczesnego kompaktu;)

Sony HX9V
1 minuta 1920x1080/50kl/s czyli w najlepszej jakosci - ok. 200MB.
(sporo zalezy od tego co filmujesz, tu - wedrowka sciezka, w tle drzewa i gory)
Generalnie karta 16GB starcza na niecala godzine filmu.
 



współpraca

Rynek Dnia Następnego

INDEX CENA ŚREDNIA [PLN/MWH] WOLUMEN [MWH]
IRDN 143.76 51680
sIRDN 150.68 36074
IRDN24 141.57 51680
IRDN8.22 151.82 36074

Rynek Towarowy Terminowy

Instrument Kurs rozl. [PLN/MWh] Zmiana[%]
BASE_Y-19 165.25 +0,07
BASE_Y-20 174.50 -0,85
BASE_M-09-17 182.50 -0,14
BASE_M-10-17 165.50 +0,46